Видеорегистратор артвей 390 инструкция: ARTWAY 390 Full HD Super Night Vision ARTWAY 390

Содержание

Видеорегистратор ARTWAY AV-390 Super Night Vision | ARTWAY ELECTRONICS

Super Night Vision 

Топовая система ночного видения: процессор и оптическая система модели специально разработаны для видеосъемки в ночное время и в условиях плохого освещения

WDR

Работа автомобильного видеорегистратора осуществляется, чаще всего, в сложных условиях недостаточной освещенности, что может привести к засветке изображения, в том числе номерных знаков. Для преодоления данной проблемы существует встроенная функция WDR (Wide Dynamic Range – расширенный динамический диапазон). Она обеспечивает особый режим съёмки, при котором камера одновременно делает два кадра с разной выдержкой.
Принцип работы заключается в том, что первый кадр видеокамера делает с минимальным временем выдержки, благодаря чему чересчур сильный световой поток не успевает засветить участки картинки. Второй кадр камера делает с максимальной выдержкой и за это время матрица успевает запечатлеть изображение самых затенённых участков. Таким образом, получаются два кадра: один максимально адаптирован для просмотра освещённых предметов, другой позволяет детально рассмотреть чересчур тёмные предметы. Дальше происходит совмещение этих двух кадров в один. Получающийся кадр обладает положительными сторонами каждого из двух исходных и в то же время лишён их недостатков.

Ещё одной ситуацией, способной испортить видеокартинку, является съёмка дороги в вечернее или ночное время и ослепление камеры регистратора фарами встречных автомобилей. Обычные видеорегистраторы не способны сделать качественное видео в подобных условиях. Видеорегистраторы, снабжённые функцией WDR, максимально сбалансируют кадры видео и сделают возможным их просмотр. Изображение будет идеальным при любой освещенности.

6 стеклянных линз

На качество записи видеорегистратора прежде всего влияет качество оптики: ведь именно через оптический объектив матрица «видит» изображение, которое впоследствии обрабатывает процессор. Если «окно» кривое и мутное, то какая бы ни была «начинка», качественное изображение получить не возможно!

Многослойная оптическая система из  6 стеклянных линз пропускает света больше, чем пластиковые линзы, что позволяет получить более  яркую и четкую картинку даже при плохом освещении. Более того, со временем стекло не помутнеет и не пожелтеет, в отличии от пластика.

 

 

  Широкий угол обзора

Широкий  угол обзора  в 170 градусов позволяет фиксировать происходящее не только на всех полосах движения, в том числе и на встречных, но и то, что слева и справа дороги, например, дорожные знаки. При этом отсутствуют искажения по краям и качество съемки не ухудшается. Видеорегистратор ARTWAY AV-390 зафиксирует действительно все, что происходит на дороге.

  Большой дисплей

Большой и яркий дисплей диагональю 2,7″  с высоким разрешением позволит Вам с комфортом  просматривать отснятые видеоролики на самом видеорегистраторе, разглядеть детали или c удобством управлять настройкой видеорегистратора.

  Режим парковки

Данный режим обеспечивает включение автоматической записи в случае происшествия во время стоянки автомобиля. Датчики удара «G-сенсор», встроенные в видеорегистратор, включают камеру в момент произведения каких-либо действий вокруг машины (удар, столкновение). На выходе Вы получаете четкую запись происходящего и зафиксированные номер автомобиля и лицо виновника.

 

  Циклическая запись 

 

Видеорегистратор записывает короткие видеоролики, длительностью 1, 2, 3 или 5 минут на карту памяти. В зависимости от объема, карты памяти будет заполнена через 5 -10 часов. Чтобы не стирать старые файлы вручную, процессор видеорегистратора сам будет стирать самые старые по дате и времени файлы, заменяя их новыми. Выбрать длительность видеоролика — 1, 2, 3 или 5 минут — можно самостоятельно, зайдя в настройки меню.

Штамп даты и времени в кадре 

Наличие этой функции позволяет установить дату и время в файле видеозаписи, а также добавить гос. номер своего автомобиля. Наличие этой информации будет являться дополнительным доводом для принятия видеозаписи в суде в качестве доказательства своей правоты.

Видеорегистратор Artway AV-390 Super Night Vision

Самые выгодные предложения по Видеорегистратор Artway AV-390 Super Night Vision

 
 

Василий Тюдешев, 29.08.2020

Достоинства: Хороший регистратор, качество съемки 5+
Покупайте

Комментарий: Хорошее

Екатерина Л. , 27.08.2020

Достоинства: Сразу в глаза бросилось full hD!)) это здорово, учитывая, что за такую цену далеко не во всех видеоергистраторах такое хорошее качество видео. Экран большой, комфортно смотреть записи. Снимает циклически, т.е. по кругу, не нужно стирать ничего + есть кнопка, которая замораживает видео. если что есть важное, и он его уже не будет перезаписывать. С виду красивое, крепится быстро

АЛЕКСАНДР М., 23.08.2020

Достоинства: Отличный дизайн….большой угол обзора.

Недостатки: Нет

Комментарий: Купил на подарок.Берите не пожалеете.

Миха В. , 22.08.2020

Достоинства: Регистратор легкий. Качество картинки прекрасное. Ночью включается подсветка, изображение не идеальное, но всё видно. Запись циклическая, новые записи затирают старые. Сам определяет когда появляется питание — начинает запись, вынул ключ из замка — несколько секунд пишет, потом выключается. Настройки не сложные, разберется и ребенок. Есть гнёзда аудио/видео. Можно легко подключить к телевизору. Но аудио/видео кабеля в комплекте нет. Есть кабель подключения к компьютеру (USB) и кабель питания (в прикуриватель). Купил по акции, цена вместе с картой памяти.

Недостатки: нет

sergey s., 12.08.2020

Достоинства: Качество съёмки.

Недостатки: Отсутствие полной инструкции, всё приходится делать методом «тыка».

Павел Орловский, 11.08.2020

Достоинства: — снимает хорошо как днём, так и в тёмное время суток ( часто возвращаюсь затемно домой с работы, поэтому хорошее качество съёмки без доп. освещения, очень кстати ).
— 6 стеклянных линз.
— широкий угол обзора, 170 гр. Это значит он снимает не только то, что происходит перед капотом, но и по бокам, достаточно широко.
— есть LED подсветка.

Недостатки: Не знаю

Комментарий: Работает, голову не делает. Пишет циклично, поэтому постоянно доставать стирать карту памяти не нужно. Плюс за бренд я уверен, несколько друзей пользуются устройствами этой фирмы, все довольны.

Андрей Т. , 10.08.2020

Достоинства: Качество видео достойное.

Недостатки: Угол обзора не 170 градусов, а 120. Даже в мануале об это написано.
Начал глючить почти сразу: перестает записывать видео в середине движения, потом самопроизвольно опять начинает(пробовал разные настройки-не помогает), принудительно запись с кнопки не включается.Иногда вообще перестает на кнопки реагировать. Поэтому когда его снял в конце дня, то увидел не всю свою дорогу, а всего 2/3 из общего движения. Расстроился, поскольку если будет дтп то он может и не снять-а это главное, для чего я его брал. И еще что-то с матрицей: въезжаешь с солнечной дороге в тоннель, а на камере темнота кромешная, только фонари видны.Потом через минуту приходит в норму. Когда выезжаешь из тоннеля, его ослепляет, все белое, проходит минута и все норм. Очень медленно реагирует.

Евгений К. , 08.08.2020

Достоинства: Длинный шнур, неплохое качество видео, много доп. функций

Недостатки: Нажатие на кнопки бывает срабатывает не с первого раза…

патрина счастливая, 06.08.2020

Достоинства: очень удобный, компактный.

Комментарий: хотелось бы чтоб при ночной сьемке фанарь не так ярко горел, замаскировать бы))))

Владимир, 05.08.2020

Достоинства: Бюджетный.

Недостатки: Все работает. Иногда мигает экран.

Комментарий: Пользуемся. Гарантия год.

 

Станислав П., 03.08.2020

Достоинства: Соотношение цена — качество

Недостатки: АКБ не держит заряд вообще; кнопки периодически не реагируют на нажатие, зависает, глючит если слабый заряд (питание от сети)

Комментарий: Обычная модель, покупал на подарок, думаю сдать, так как постоянно виснет и просит форматировать карту.

Владимир К., 02.08.2020

Достоинства: Хорошое качество съемки,устроила цена

Недостатки: пока не обнаружил

Людмила, 28. 07.2020

Достоинства: Отличное качество съемки, в том числе и ночью. Хороший угол обзора. Номера машин читаемы.

Недостатки: нет

Комментарий: пока еще не пожалела о своем выборе

Masha S., 25.07.2020

Комментарий: Широкий угол обзора в 170 градусов, датчик удара, датчик движения в кадре, высокое разрешение, компактный корпус с большим экраном. Даже мне было не сложно разобраться в этом устройстве. Настроила, подключила, проверила работу от аккумулятора, держит хорошо.

Вячеслав Павлович, 21. 07.2020

Недостатки: Обломилось крепление пластика на самом видеорегистраторе

Анна Ч., 16.07.2020

Достоинства: Широкий угол обзора. Хорошее качество съемки ночью. Карту памяти на 16 GB воспринимает без проблем. Работает без зависаний.

Недостатки: Пока не выявили

Комментарий: Хорошая модель. Номера машин у встречного потока различимы и хорошо читаемы. Соотношение: цена-качество.

Юлия И., 16.07.2020

Достоинства: Удобный в использовании

Недостатки: корпус очень хрупкий

руслан п. , 15.07.2020

Достоинства: Красивый дизайн,цена,качество записи

Недостатки: Трудно вставить карту памяти

Комментарий: Отличный видеорегистратор,все понятно,четко снимает.Рекомендую данную модель

дмитрий к., 11.07.2020

Достоинства: угол обзора.чёткое изображение.звукозапись.датчик движения.

Недостатки: невижу

Комментарий: отлиный регисратор

Коля Л., 24.06.2020

Достоинства: Куплен 2 месяца назад. Хороший регистратор, который отлично работает и снимает картинку в Full HD. Замечательно справляется со съемкой в ночное время суток. Понравились удобные настройки и хорошее качественное крепление — ни разу не упал, снимаю часто и ничего не сломал.

Комментарий: Интересный дизайн, отличается от стандартных региков.

Маргарита П., 23.06.2020

Достоинства: Отличное качество съемки, очень порадовал угол обзора камеры. Прост в использовании, отлично держится крепление. Покупкой очень довольна)))

Недостатки: Пластик мягкий. Других недостатков не нашла.

Антон К., 22.06.2020

Достоинства: Дизайн

Недостатки: Качество сборки,дешевый пластик, не адекватно работает кнопка меню отключает звук записи!

Комментарий: За такую цену можно сделать все немного качественней!

маша п. , 18.06.2020

Достоинства: Стильный дизайн, простое и понятное меню, большой экран, чёткий звук и разборчивая речь на записи.

Недостатки: Отсутствие карты памяти в комплекте

Комментарий: Хорошее соотношение цена/качество

лео м., 15.06.2020

Достоинства: Датчик удара. Датчик движения. Отличная ночная съёмка.

Недостатки: Инструкция не информативна, не понятен выход в меню, запись ведет рандомно!

Комментарий: Впечатления от девайся не самые радужные!!!

arkadiy_parovozov56, 11. 06.2020

Достоинства: цена,в данном ценовом диапазоне конкурентов нет,в комплекте флешка на 16 гб.,очень длинный провод питания регистратора.хороший дисплей,куча функций

Недостатки: присоска слабенькая

Комментарий: пользуюсь уже 3 недели,все устраивает,работает отлично,
за отзыв производитель обещает 100 р на телефон))) приятный бонус!
брал в Оренбурге цена 3500 р.

Андрей Андреевич, 08.06.2020

Достоинства: мне понравились отзывы других владельцев о малом количестве брака данной модели

Недостатки: но мои надежды не оправдались. На нажатие кнопок совершенно не реагировал, дата и время не устанавливались. К компьютеру не подключался

Комментарий: Купив, сразу прикрепил. Работает 2 минуты и отключается. Вылечить не получилось, вернулись в магаз, сразу обменяли на такой же. Доехали до дому, вроде работал. Из всей дороги сохранилось только небольшой кусочек, остальное было невозможно воспроизвести. На нажатие кнопок не реагировали ни первый, ни второй, только вкл и выкл. Сдал обратно, взял Artway AV-391. Он имеет аккумулятор, ну и пока работает.

Эдуард Гавриков, 04.06.2020

Достоинства: Широкий угол обзора, захватывает почти от стойки до стойки, классическое ваакумное крепление к стеклу, Компактный, закрепил за зеркало заднего вида и его не видно. Выключение экрана через несколько минут, не слепит. Возможность, делать фото. Датчик вибрации работает очень хорошо, уже успел испробовать.

Недостатки: Кавчество фото не самое лучшее, Номера на большой скорости не разглядишь, ночная сьемка оставляет желать лучшего, но при желании можно разглядеть.

Комментарий: Смысла в фонариках со сторны камеры я так и не понял. Неплохой товар за свои деньги. Звук на видео очень отчетливо слышно.

Виталий Е., 23.05.2020

Комментарий: Отличный товар за свою цену. Особенно порадовало простое и надежное крепление регистратора.

Sim S., 20.05.2020

Комментарий: Видеорегистратор снимает в 1080, картинка хорошая, в том числе и ночью. Номера впереди идущих авто читаемы. Запись циклическая, можно выбрать временной отрезок, по сколько будут длиться ролики. Я взял для него карту на 32 гб, её предостаточно. Угол обзора 170 градусов. Слева, спереди, справа, всё захватывает перед собой, это мне сильно нравится. При этом искажение минимальное, я лично и не замечаю его. Перед покупкой ролики в интернете посмотрел, их много.. Затем купил. Доволен на все 100%

Alisa A., 18.05.2020

Достоинства: Красивый дизайн, хорошее качество изображения.

Комментарий: Данный регистратор удобен в использовании цена не завышенаю

Видеорегистратор ArtWay 390

Анонимно03 июня 2016

Плюсы: Отличный регистратор

Минусы: Нет

Комментарий: Недорогой и хороший регистратор с удобным крепежом.
Дарил другу, коробка как подарочная, очень качественная, как и регистратор

Екатерина Леваневская06 мая 2016

Плюсы: Сразу в глаза бросилось full hD!)) это здорово, учитывая, что за такую цену далеко не во всех видеоергистраторах такое хорошее качество видео. Экран большой, комфортно смотреть записи. Снимает циклически, т.е. по кругу, не нужно стирать ничего + есть кнопка, которая замораживает видео. если что есть важное, и он его уже не будет перезаписывать. С виду красивое, крепится быстро

Степан Шаров04 мая 2016

Минусы: Всё оправдало.

Комментарий: Купил, доставили. Вскрыл коробку, достал устройство. 5 минут заняло времени ни изучение инструкции, а дальше и сам по ходу дела разобрался. В тот же день уже снимал. Экран нравится что большой, и управление несколько кнопок, путаться то негде.
Высокое разрешение, G сенсор, запись циклическая.

Masha Suetova03 мая 2016

Комментарий: Широкий угол обзора в 170 градусов, датчик удара, датчик движения в кадре, высокое разрешение, компактный корпус с большим экраном. Даже мне было не сложно разобраться в этом устройстве. Настроила, подключила, проверила работу от аккумулятора, держит хорошо.

Эдик Галкин01 мая 2016

Плюсы: -Большой яркий дисплей
-Работа от аккумулятора
-Полный комплект
-Высокое разрешение записи видео

Минусы: Не замечал.

Комментарий: Установил с первого дня покупки. Экран хороший, кнопки удобные. В меню быстро сориентировался, так что даже инструкция не потребовалась.
Снимает лучше, чем мой предыдущий видеорегистратор, хотя цена примерно одинаковая.

Кирилл Громов01 мая 2016

Комментарий: Остался под хорошим впечатлением от первого дня использования. Ездил с ним практически целый день, держится крепление хорошо, корпус не греется, хоть и снимал без перерыва. Циклическая запись это полезная функция, так что карту памяти я даже не трогал, ничего не стирал. Проверил Sos кнопку, сработало. Цена совсем небольшая, по меркам подобных устройств в магазинах.

Виталий Шепкин28 апреля 2016

Плюсы: Artway= Prestige. Взял не задумываясь. Эта модель, которую я купил не исключение. Начиная от хорошей съёмки, заканчивая симпатичным дизайном. Всё что указано на оф. сайте производителя, верно.
Корпус из хорошего, не дешёвого пластика, устройство лёгкое, и в комплекте идёт удобный кронштейн. Особенно понравилось, не засвечиваются номера машин при съемки в темное время из-за функции super night video.
——
Берите, будете только в выйгрыше.! Я только плюсую !.

Артём Семёнов24 апреля 2016

Комментарий: Выбирал основываясь на технических характеристиках и собственном бюджете на покупку видеорегистратора. Остался даже в плюсе, купив artway 390/ потому что это даже не средний по данным гаджет, а очень хороший. Есть всё что требуется, и датчик движения, и большой экран, и запись видео в высоком разрешении. Если бы была возможность вернуться ко дню покупки, то я бы опять же взял его, тем более у меня раньше был видеорегистратор «престиж», а это то же самое.

Сергей Данчев22 апреля 2016

Плюсы: + Super Night Video (это функция WDR — когда ночью номера не засвечиваются)
+Full HD!
+Пишет звук ( с возможностью отключения )
+Богатая комплектация
+Понятная инструкция

Минусы: —

Комментарий: Во-первых комплектация, есть usb и hdmi кабели, кронштейн, зарядное устройство в автомобиль. В общем то и всё, ну и инструкция конечно. Карту памяти докупил отдельно на 32 гб.
Циклическая запись, удобно, не нужно чистить постоянно память, перезаписывает.
Качество съёмки на 5+!!

Ярик Богданов21 апреля 2016

Минусы: Отсутствуют.

Комментарий: Купил неделю назад. Понравился внешний вид устройства, и заявленные технические характеристики. Продукт новый, но решил попробовать, цена доступная. В первый же день протестировал от и до, и остался под хорошим впечатлением. Огромный экран, лёгкое управление, отличная съёмка. Кронштейн надёжный, видеорегистратор не трясётся.

Рома Солдатенко20 апреля 2016

Плюсы: 30 кадров в секунду частота записи. Видео идёт равномерно, не глючит и вообще качество очень хорошее. Я даже удивился получить такой результат за сравнительно небольшую сумму..
Второе по значимости, что очень важно это угол обзора, он здесь 170 градусов. Дорогу видно полностью, здорово — 3 полосы и обочина.
+ночной режим, очень выручает, особенно на трассе, где без него мало что вообще видно будет. Самое главное — номера не засвечиваются, что важно для суда и ДПС.
Работает как от сети автомобиля, так и от аккумулятора собственного, который кстати очень даже неплохой.. ( обычно просто ставят «мёртвые». А здесь порадовал).

Минусы: Не знаю

Комментарий: Это тот же prestige, поэтому заказал не сомневаясь.

Анонимно01 июня 2016

Плюсы: Хорошее качество съемки, доступные кнопки управления, отличный угол обзора.

Минусы: Не могу настроить уровень экспозиции, где очень светло, а где темно. Подсветку вообще не понял, она видимо для галочки или я не понял как ей пользоваться.

Комментарий: Заявленным характеристикам соответствует, но вот экспозиция

Видеорегистратор Artway AV-110 Вопросы и ответы о видеорегистраторе Artway AV-110

Задайте вопрос по этой модели и кто-нибудь обязательно ответит
7 апреля 2017, 17:41 #
как включить→

Ознакомьтесь с инструкцией, там все должно быть расписано

АнатолийНиколай Б. 26 сентября 2017, 15:46

Не пойму тоже. от компа запись включается . от автомобиля нет бред

1 сентября 2020, 18:38 #
время работы аккумулятора→

АКБ рассчитан на то, чтоб успеть сохранить информацию, при отключении или ДТП.

26 января 2017, 22:41 #
Как установить дату и время ?→

Кроме года ничего установить не удается. Курсор либо вверх либо вниз. В сторону как ? Пробовал через комп. — ничего.

Все должно устанавливаться из меню.

19 января 2017, 09:57 #
ночной режим→

как включить ик светодиоды?

вадим10 марта 2018, 16:41

Сбоку кнопка включения регистратора, её один раз нажимаешь и включаются светодиоды и ночной режим.

Ик светодиоды должны включатся автоматически при переходе регистратора в ночной режим.

28 февраля 2020, 08:53 #
как просмотреть видео на регистраторе AV-110→
9 июня 2017, 19:30 #
как отключить звук на этой модели→
26 апреля 2017, 10:32 #
как перевернуть изабражение→

Видеорегистратор Artway AV-390 — обзор

Для автомобилиста вечным камнем преткновения становятся метания: что выбрать? Дорогую игрушку в качестве видеорегистратора, или недорогое, но ограниченное в функциях устройство для записи видео во время езды?
Настало время, когда не приходится выбирать между ценой, качеством и функциональностью!
Ниже для вас представлен обзор на видеорегистратор ARTWY AV-390.

Сборка и функционал модели имеют классический стиль, но в ней сочетаются самые необходимые характеристики и функции, которые должны присутствовать в бюджетном видеорегистраторе, а именно: разрешение видео 1920*1080 30к/сек, большой 2,7” экран, LED – подсветку, функцию WDR и широкий угол обзора 170 градусов.

Технические данные

Процессор NTK96650
Видео матрица: Датчик 3M CMOS?1/4 дюйма
Режим записи без остановки при заполнении карты памяти (циклическая запись): Есть
G-Sensor (датчик удара) Есть
IR подсветка LED подсветка
Кнопка SOS (экстренное сохранение фрагмента) Нет
Материал корпуса Пластик
Форматы видео записи: 1920×1080, 30 к/сек,
Форматы фото 12М (4032х3024 pixels) 10М (3648Х2736 pixels) 8М (3264Х2448 pixels) 5M (2592X1944 pixels) 3M (2048X1536 pixels) 2М (1920Х1080 pixels) 1.3М (1280Х960 pixels)
Угол камеры 170
Монитор 2.7 дюйма, TFT Colorful LCD
Формат записи видео MOV H.264
Формат сохранения фото JPG
Запись звука On или Off
Датчик движения Есть
Поддерживаемые карты памяти Micro SD Card (max 32GB, class 10)
Сохранение видеофрагментов 1мин / 3 мин / 5 мин / off
Запись даты и видео на изображении Есть
Interface USB2. 0/HDMI
Напряжение питания 5V 500MA
Размер Размер: 113*32.2*46.3мм
Вес 69 грамм.
Батарея Rechargeable Li-ion Battery 450mAh
Аксессуары в комплекте: USB Cable, автомобильное крепление (кронштейн), автомобильное зарядное устройство, инструкция

1. Внешний вид.
На лицевой стороне упаковки продукта и по бокам расписаны все основные отличительные особенности данного регистратора, и характеристики. В нижней части упаковки указана комплектация AV-390, телефон службы поддержки, серийный номер прибора и сайт производителя.

Внешне AV-390 выглядит просто и имеет довольно распространенную пресс-форму корпуса. 

На лицевой стороне в установленной на корпусе металлической пластине расположен стеклянный объектив, состоящий из шести линз, динамик и LED подсветка.

По торцам расположены: разъем mini-HDMI и кнопка резет с одной стороны, и разъем под карту памяти microSD с другой стороны. Хотелось бы отметить, что тестирование прибора происходило с картой памяти на 32 Gb 10 classa.

 

В верхней части регистратора расположен разъем под крепление на лобовое стекло, разъем для подключения провода питания, разъем под AV-выход, копка вкл./выкл. регистратора и кнопка выхода в меню настроек.
  С противоположной стороны от объектива мы наблюдаем довольно большой экран, аж целых 2,7” у которого по бокам расположены по две кнопки управления. С одной стороны две кнопки стрелочка вверх и стрелочка вниз, отвечают за навигацию по меню (так же эти кнопки отвечают за увеличения, уменьшения зума картинки во время съемки), с другой стороны кнопа ОК — подтверждение выбора определенного действия и кнопка MODE — отвечающие за переход в разные режимы 

 
2. Комплектация: USB Cable, автомобильное крепление (кронштейн), автомобильное зарядное устройство, инструкция, гарантийный талон. 

 
3. Меню настроек и инструкция.
Инструкция миниатюрная и содержит всю необходимую информацию об эксплуатации гаджета.
Меню простое и максимально удобное, нет никакой сложности в настройке регистратора под свои нужды.
Дополнительно:
Немаловажная функция для тех, у кого дома нет веб-камеры. Регистратор Artway AV-390 при подключении проводом USB к компьютеру, можно использовать как выносную веб-камеру для видеообщения.
3. Видео
Начнем сразу с данных
Разрешение 1920*1080
Формат: AVC
Продолжительность: 3 м. 1 с.
Битрейт: 14,7 Мбит/сек
Ширина: 1920 пикселей
Высота: 1080 пикселей
Соотношение сторон: 16:9
Режим частоты кадров: Постоянный
Частота кадров: 30,000 кадров/сек
Цветовое пространство: YUV
Субдискретизация насыщенности: 4:2:0
Битовая глубина : 8 бит
Тип развёртки: Прогрессивная
Бит/(Пиксели*Кадры): 0.237
Размер потока: 318 Мбайт (93%)
Регистратор делает оптимальные записи в дневное, пасмурное, сумеречное время, а также в ночное время на хорошо освещенных участках дороги. Номера и знаки можно прочитать на приличном расстоянии, картинка четкая.
5. Вывод:
— интуитивное управление;
— простота в эксплуатации;
— соотношение «цена—качество»;
— на выходе — четкие видеоролики.

Видеорегистратор Artway AV-390 — обзор — 25 Января 2017

Для автомобилиста вечным камнем преткновения становятся метания: что выбрать? Дорогую игрушку в качестве видеорегистратора, или недорогое, но ограниченное в функциях устройство для записи видео во время езды?
Настало время, когда не приходится выбирать между ценой, качеством и функциональностью!
Ниже для вас представлен обзор на видеорегистратор ARTWY AV-390.

Сборка и функционал модели имеют классический стиль, но в ней сочетаются самые необходимые характеристики и функции, которые должны присутствовать в бюджетном видеорегистраторе, а именно: разрешение видео 1920*1080 30к/сек, большой 2,7” экран, LED – подсветку, функцию WDR и широкий угол обзора 170 градусов.

Технические данные

Процессор NTK96650
Видео матрица: Датчик 3M CMOS?1/4 дюйма
Режим записи без остановки при заполнении карты памяти (циклическая запись): Есть
G-Sensor (датчик удара) Есть
IR подсветка LED подсветка
Кнопка SOS (экстренное сохранение фрагмента) Нет
Материал корпуса Пластик
Форматы видео записи: 1920×1080, 30 к/сек,
Форматы фото 12М (4032х3024 pixels) 10М (3648Х2736 pixels) 8М (3264Х2448 pixels) 5M (2592X1944 pixels) 3M (2048X1536 pixels) 2М (1920Х1080 pixels) 1. 3М (1280Х960 pixels)
Угол камеры 170
Монитор 2.7 дюйма, TFT Colorful LCD
Формат записи видео MOV H.264
Формат сохранения фото JPG
Запись звука On или Off
Датчик движения Есть
Поддерживаемые карты памяти Micro SD Card (max 32GB, class 10)
Сохранение видеофрагментов 1мин / 3 мин / 5 мин / off
Запись даты и видео на изображении Есть
Interface USB2.0/HDMI
Напряжение питания 5V 500MA
Размер Размер: 113*32.2*46.3мм
Вес 69 грамм.
Батарея Rechargeable Li-ion Battery 450mAh
Аксессуары в комплекте: USB Cable, автомобильное крепление (кронштейн), автомобильное зарядное устройство, инструкция

1. Внешний вид.
На лицевой стороне упаковки продукта и по бокам расписаны все основные отличительные особенности данного регистратора, и характеристики. В нижней части упаковки указана комплектация AV-390, телефон службы поддержки, серийный номер прибора и сайт производителя.

Внешне AV-390 выглядит просто и имеет довольно распространенную пресс-форму корпуса.  

На лицевой стороне в установленной на корпусе металлической пластине расположен стеклянный объектив, состоящий из шести линз, динамик и LED подсветка.


По торцам расположены: разъем mini-HDMI и кнопка резет с одной стороны, и разъем под карту памяти microSD с другой стороны. Хотелось бы отметить, что тестирование прибора происходило с картой памяти на 32 Gb 10 classa.

 

В верхней части регистратора расположен разъем под крепление на лобовое стекло, разъем для подключения провода питания, разъем под AV-выход, копка вкл./выкл. регистратора и кнопка выхода в меню настроек.
  С противоположной стороны от объектива мы наблюдаем довольно большой экран, аж целых 2,7” у которого по бокам расположены по две кнопки управления. С одной стороны две кнопки стрелочка вверх и стрелочка вниз, отвечают за навигацию по меню (так же эти кнопки отвечают за увеличения, уменьшения зума картинки во время съемки), с другой стороны кнопа ОК — подтверждение выбора определенного действия и кнопка MODE — отвечающие за переход в разные режимы 

 


2. Комплектация: USB Cable, автомобильное крепление (кронштейн), автомобильное зарядное устройство, инструкция, гарантийный талон. 

 


3. Меню настроек и инструкция.
Инструкция миниатюрная и содержит всю необходимую информацию об эксплуатации гаджета.
Меню простое и максимально удобное, нет никакой сложности в настройке регистратора под свои нужды.
Дополнительно:
Немаловажная функция для тех, у кого дома нет веб-камеры. Регистратор Artway AV-390 при подключении проводом USB к компьютеру, можно использовать как выносную веб-камеру для видеообщения.
4. Видео
Начнем сразу с данных
Разрешение 1920*1080
Формат: AVC
Продолжительность: 3 м. 1 с.
Битрейт: 14,7 Мбит/сек
Ширина: 1920 пикселей
Высота: 1080 пикселей
Соотношение сторон: 16:9
Режим частоты кадров: Постоянный
Частота кадров: 30,000 кадров/сек
Цветовое пространство: YUV
Субдискретизация насыщенности: 4:2:0
Битовая глубина : 8 бит
Тип развёртки: Прогрессивная
Бит/(Пиксели*Кадры): 0. 237
Размер потока: 318 Мбайт (93%)
Регистратор делает оптимальные записи в дневное, пасмурное, сумеречное время, а также в ночное время на хорошо освещенных участках дороги. Номера и знаки можно прочитать на приличном расстоянии, картинка четкая.
5. Вывод:
— интуитивное управление;
— простота в эксплуатации;
— соотношение «цена—качество»;
— на выходе — четкие видеоролики.
 

 

http://www.taker.im/review/13805-videoregistrator-Artway-AV-390-obzor

✅ Видеорегистратор artway 390

Ключевые слова: Двухкамерный видеорегистратор Carway f600 купить в Дзержинске, заказать Видеорегистратор artway 390, Subini видеорегистратор 3 в 1.


Автомобильный регистратор на 4 камеры с gps, Двухкамерный видеорегистратор Carway f600 купить в Дербенте, Видеорегистратор 330i, Обновление видеорегистратора, Видеорегистратор roadgid x5

Что такое Видеорегистратор artway 390

Что интересно, в процессе разработки был использован передовой опыт специалистов различных стран с различных континентов, ведь при помощи сети Интернет можно общаться из любой точки мира, а значит все накопленные знания легко доступны инженерам в любом уголке нашей планеты. Carvun F600 — две камеры, запись видео 1280×480, ЖК-экран 2.70, аккумулятор, микрофон, видеовыход, microSD (microSDHC). Смотрите лучшие обзоры Carvun F600


Официальный сайт Видеорегистратор artway 390

Состав

Всего 3310р. Быстрая доставка. Заказ в любое время суток. Оплата онлайн. Cамовывоз. Гарантия 100%. Artway 390 продолжил популярный в среде китайских видеорегистраторов тренд на ренейминг и бейдж-инжиниринг. 26 магазинов. Выбор по параметрам. Доставка из магазинов Белгорода и других регионов. ARTWAY AV-390 SuperNightVision Надежный и компактный видеорегистратор ARTWAY AV-390 SuperNightVision отличает высокое качество видеосъемки даже в. Обзор видеорегистратора Artway AV-390 ArtWay AV 390 видеорегистратор тест Artway AV 390 часть 1 внешний вид и комплектация Artway AV 390 часть 2. Отзывы › Авто и мото › Электроника для авто › Видеорегистраторы › Artway. Видеорегистратор Artway AV-390 — отзывы. Видеорегистратор ARTWAY AV-390 зафиксирует действительно все, что происходит на дороге. Следующее. Обзор видеорегистратора Artway AV-390 — Продолжительность: 12:06 Арсен Иванов 891 просмотр. Комплект видеорегистратор ARTWAY AV-390+карта памяти SmartBuy 16 Gb станет вашим надежным помощником в деле четкой и полной фиксации происходящего на. Получается, что за те деньги, которые просят за Artway AV-390, предлагается видеорегистратор, откровенно слабый почти по всем параметрам. Читайте честные отзывы владельцев Artway 390, НА НЕГАТИВЕ РУ. Видеорегистратор не плохой, записывает видео хорошего качества. В наличии в интернет-магазине М.Видео. Быстрая доставка, выгодные акции. Видеорегистратор 5 в 1 + Антирадар + GPS + Антисон. Новинка 2018 года. Акция: −40%. Нашли дешевле? Снизим цену! Официальный поставщик. Удобный кредит online. Официальная гарантия. Доставка и самовывоз!Содействие в подборе финансовых услуг/организа…Содействие в подборе финансовых услуг/организаций

Эффект от применения

Видеорегистратор с двумя камерами, которые можно поворачивать на 180 градусов. Мало кто может похвастаться способностью охватить столь большой сектор обзора! Вы можете развернуть обе камеры на дорогу или повернуть одну из камер в салон. Полная автоматизация и автонастройка режимов, а так же режим ночного видения позволяет снимать при любой погоде и освещении. Видеорегистратор с двумя камерами, которые можно поворачивать на 180 градусов. Мало кто может похвастаться способностью охватить столь большой сектор обзора! Вы можете развернуть обе камеры на дорогу или повернуть одну из камер в салон. Полная автоматизация и автонастройка режимов, а так же режим ночного видения позволяет снимать при любой погоде и освещении.

Мнение специалиста

Carvun F600 Dual camera car DVR GPS. How to modify to hold a 16mm or 12mm lens or any other size and replacing the standard T mount with a more stable and more commonly available 4 prong mount. This video was filmed with my L3000 720p car DVR as it is better quality than my normal camera. Due to a corrupt file 5 seconds is missing right when I stick the mount to the DVR but you get the idea. Stupid MOV files.Не работает carvun F600, черный экран.Carvun F60 Dual camera GPS HD720p 2.7 screen Car DVR From ebay $99.35NZD + $15NZD for GPS and Free shipping. I think all these DVR’s are made by the same company which is funny because of all the different types, shapes & features, they still haven’t made a really good one. I should have done the F30 review first. I really like the design of the F series DVR’s the large screen & camera placement & movement but they stuffed it up using MOV files & crap program. The shock sensor was very very insensitive regardless of setting and could get it to trip even when turned off in the menu.

27 магазинов. Выбор по параметрам. Доставка из магазинов Белгорода и других регионов. Большая скидка на зарядное устройство для автомобиля dvr: универсальный автомобильный видеорегистратор зарядное устройство. Многие наверное сталкивались с тем, что купленная неродная зарядка для видеорегистратора не работает. Обратился ко мне кореш с такой проблемой. Регистратор Carcam HD CAR DVR и неродная зарядка. Автомобильный адаптер USB для видеорегистратора — Продолжительность: 4:55 ШОУ- РУМ 11 354 просмотра. Нужно ли отключать зарядное устройство из розетки?. Зарядное устройство для видеорегистратора. Продажа, поиск, поставщики и магазины, цены в России. Смартфоны и смарт-часы. Для зарядки и подключения. Автомобильные зарядные устройства. Автомобильное зарядное устройство AceLine C5B1А. [1000 мА, 5 В, mini USB, универсальное]. Зарядное устройство для аккумуляторов авто мото. 3 в 1 Видеорегистратор,навигатор,радар. Можно ли использовать зарядное устройство от навигатора (с силой тока 1.5А вместо положенных 1А) и во что это может вылиться для видеорегистратора и аккумулятора в нём?. Мы нашли 1104 товаров, соответствующих запросу Зарядные Устройства для видеорегистратора. Кабель питания для видеорегистратора с антирадаром H9+ (3 метра). Зарядное устройство для Антирадара+Видеоерегистратора CONQUEROR H9+GR8+ (3 метра/ 1.2метра) оригинал. Мы производим лучшие зарядные, зарядно-разрядные и пускозарядные устройства. Покупайте прямо сейчас на Global-ID.ru. Бесплатная доставка! В наличии. 2 млн+ проверенных поставщиков на Алибаба. Получите выгодное предложение. Продажа и установка систем ограничения доступа и видеонаблюдения

Назначение

Модель Carvun F600 по совокупности параметров занимает 2653 место в рейтинге категории ‘Видеорегистраторы’. Это означает что она лучше чем 30.3% моделей из данной категории. Модель не пользуется популярностью и не получила оценок. Carvun F600 имеет характеристики, которые превосходят средние значение по категории. Среди них такие параметры как Вес, Диагональ. К минусам F600 стоит отнести: Запись видео.

Как заказать?

Заполните форму для консультации и заказа Видеорегистратор artway 390. Оператор уточнит у вас все детали и мы отправим ваш заказ. Через 1-10 дней вы получите посылку и оплатите её при получении.

Видеорегистратор artway 390. Ми видеорегистратор. Отзывы, инструкция по применению, состав и свойства.


Официальный сайт Видеорегистратор artway 390

✔ Купить-Видеорегистратор artway 390 можно в таких странах как:


Россия, Беларусь, Казахстан, Киргизия, Молдова, Узбекистан, Украина Армения


Что интересно, в процессе разработки был использован передовой опыт специалистов различных стран с различных континентов, ведь при помощи сети Интернет можно общаться из любой точки мира, а значит все накопленные знания легко доступны инженерам в любом уголке нашей планеты.

Великолепный представитель категории Видеорегистраторы. Товар представляет из себя отличный образец инженерного искусства, в его разработке применялись самые передовые на момент выпуска технлогии. Люди, которые изобретали дизайн, писали тексты для других специалистов старались донести до будущего клиента самые смелые идеи.

Модель Carvun F600 по совокупности параметров занимает 2653 место в рейтинге категории ‘Видеорегистраторы’. Это означает что она лучше чем 30. 3% моделей из данной категории. Модель не пользуется популярностью и не получила оценок. Carvun F600 имеет характеристики, которые превосходят средние значение по категории. Среди них такие параметры как Вес, Диагональ. К минусам F600 стоит отнести: Запись видео.

Видеорегистратор ARTWAY AV-390 Super Night Vision | ARTWAY ELECTRONICS

Супер ночное видение

Топовая система ночного видения: процессор и оптическая система модели специально разработаны для видеосъемки в условиях плохого освещения

WDR

Работа автомобильного видеорегистратора осуществляется, чаще, в сложных условиях недостаточной освещенности, что может привести к засветке изображения, в том числе номерных знаков.Для преодоления данной проблемы существует встроенная функция WDR (Wide Dynamic Range — расширенный динамический диапазон). Она обеспечивает особый режим съёмки, при котором камера одновременно делает два кадра с разной выдержкой.
Принцип работы заключается в том, что первый кадр видеокамера делает с минимальным временем выдержки, благодаря чему чересчур сильный световой поток не успевает засветить участки картинки. Второй кадр камера делает с максимальной выдержкой и за это время матрица успевает запечатлеть изображение самых затененных участков.Таким образом, получаются два кадра: один максимально адаптирован для освещенных предметов, другой позволяет детально рассмотреть чересчур тёмные предметы. Дальше происходит совмещение этих двух кадров в один. Получающийся двухпроцессорный обладает положительными сторонами из исходных и в то же время лишён их недостатков.
Ещё одной ситуацией, способной испортить видеокартинку, съёмку дороги в вечернее время или ослепление камеры регистратора фарами встречных автомобилей.Обычные видеорегистраторы не способны сделать качественное видео в подобных условиях. Видеорегистраторы, снабженные функцией WDR, максимально сбалансируют кадры видео и сделают их возможным просмотр. Изображение будет идеальным при любой освещенности.

6 стеклянных линз

На качество записи видеорегистратора прежде всего влияет на качество оптики: ведь именно через оптический объектив матрица «видит» изображение, которое оказывает обрабатывает процессор.Если «окно» кривое и мутное, то какая бы ни была «начинка», качественное изображение получить не возможно!

Многослойная оптическая система из 6 стеклянных линз пропускает света больше, чем пластиковые линзы, что позволяет получить более яркую и четкую картинку даже при плохом освещении. Более того, со временем стекло не помутнеет и не пожелтеет, в отличии от пластика.

Широкий угол обзора

Широкий угол обзора в 170 градусов позволяет фиксировать происходящее не только на всех полосах движения, в том числе и на встречных, но и то, что слева и справа дороги, например, дорожные знаки. При этом отсутствуют искажения по краям и качество плохого качества. Видеорегистратор ARTWAY AV-390 зафиксирует действительно все, что происходит на дороге.

Большой дисплей

Большой и яркий дисплей диагональю 2,7 ″ с высоким разрешением позволяет Вам с комфортом просматривать отснятые видеоролики на видеорегистраторе, разглядеть детали или c удобством настройкой видеорегистратора.

Режим парковки

Данный режим включает автоматическую запись в случае возникновения во время стоянки автомобиля. Датчики удара «G-сенсор», встроенные в видеорегистратор, включают в себя в момент каких-либо действий вокруг машины (удар, столкновение). На выходе получается четкую запись происходящего и зафиксированного номер автомобиля и лицо виновника.

Циклическая запись

Видеорегистратор записывает короткие видеоролики, длительностью 1, 2, 3 или 5 минут на карту памяти. В зависимости от объема, карты памяти будет заполнена через 5 -10 часов. Чтобы не стирать старые файлы вручную, процессор видеорегистратора сам будет стирать самые старые по дате и времени файлы, заменяя их новыми.Выбрать длительность видеоролика — 1, 2, 3 или 5 минут — можно самостоятельно, зайдя в настройки меню.

Штамп даты и времени в кадре

Наличие этой функции позволяет установить дату и время в записиси, а также добавить гос. номер своего автомобиля. Наличие этой информации будет являться дополнительным доводом для судебного заседания по доказательству своей правоты.

Artway AV-390 Super Night Vision — Видеорегистратор

Описание

Супер ночное видение

Топовая система ночного видения: процессор и оптическая система модели специально разработаны для видеосъемки в ночное время и в условиях плохого освещения

WDR

Работа автомобильного видеорегистратора осуществляется, чаще всего, в сложных условиях недостаточной освещенности, что может привести к засветке изображения, в том числе номерных знаков. Для преодоления данной проблемы существует встроенная функция WDR (Wide Dynamic Range — расширенный динамический диапазон). Она обеспечивает особый режим съёмки, при котором камера одновременно делает два кадра с разной выдержкой.

Ещё одной ситуацией, способной испортить видеокартинку, является съёмка дороги в вечернее или ночное время и ослепление камеры регистратора фарами встречных автомобилей. Обычные видеорегистраторы не способны сделать качественное видео в подобных условиях.Видеорегистраторы, снабженные функцией WDR, максимально сбалансируют кадры видео и сделают их возможным просмотр. Изображение будет идеальным при любой освещенности.

6 стеклянных линз

Многослойная оптическая система из 6 стеклянных линз пропускает света больше, чем пластиковые линзы, что позволяет получить более яркую и четкую картинку даже при плохом освещении. Более того, со временем стекло не помутнеет и не пожелтеет, в отличие от пластика.

Широкий угол обзора

Широкий угол обзора в 170 градусов позволяет фиксировать происходящее не только на всех полосах движения, в том числе и на встречных, но и то, что слева и справа дороги, например, дорожные знаки. При этом отсутствуют искажения по краям и качество плохого качества. Видеорегистратор Artway AV-390 зафиксирует действительно все, что происходит на дороге.

Большой дисплей

Большой и яркий дисплей диагональю 2,7 ″ с высоким разрешением вам с комфортом просматривать отснятые видеоролики на самом видеорегистраторе, разглядеть детали или удобством управлять настройкой видеорегистратора.

Режим парковки

Данный режим включения автоматической записи в случае возникновения во время стоянки автомобиля. Датчики удара «G-сенсор», встроенные в видеорегистратор, включают в себя в момент каких-либо действий вокруг машины (удар, столкновение). На выходе вы получите четкую запись происходящего и зафиксированного номер автомобиля и лицо виновника.

Циклическая запись

Видеорегистратор записывает короткие видеоролики, длительностью 1, 2, 3 или 5 минут на карту памяти.В зависимости от карта объема памяти будет заполнена через 5 -10 часов. Чтобы не стирать старые файлы вручную, процессор видеорегистратора сам будет стирать самые старые по дате и времени файлы, заменяя их новыми. Выбрать длительность видеоролика — 1, 2, 3 или 5 минут — можно самостоятельно, зайдя в настройки меню.

Штамп даты и времени в кадре

Наличие этой функции позволяет установить и время в видеозаписи, а также добавить гос.номер своего автомобиля. Наличие этой информации будет являться дополнительным доводом для судебного заседания по доказательству своей правоты.

Видеорегистратор ArtWay 390

Анонимно03 июня 2016

Плюсы: Отличный регистратор

Минусы: Нет

Комментарий: Недорогой и хороший регистратор с этим крепежом.
Дарил другу, коробка как подарочная, очень качественная, как и регистратор

Екатерина Леваневская06 мая 2016

Плюсы: Сразу в глаза бросилось full hd!)) Это здорово, учитывая, что за такую ​​цену далеко не во всехергистраторах такое хорошее качество видео. Экран большой, комфортно смотреть записи. Снимает циклически, т.е. по кругу, не нужно стирать ничего + есть кнопка, которая замораживает видео. если что есть важное, и он его уже не будет перезаписывать. С виду красивое, крепится быстро

Степан Шаров04 мая 2016

Минусы: Всё оправдало.

Комментарий: Купил, доставили. Вскрыл коробку, достал устройство. 5 минут заняло время ни изучения инструкции, а дальше и сам по ходу дела разобрался. В тот же день уже снимал. Экран нравится что большой, и управление несколькими кнопками, путаться то негде.
Высокое разрешение, G сенсор, запись циклическая.

Маша Суетова03 мая 2016

Комментарий: Широкий угол в 170 градусов, датчик удара, датчик движения в кадре, высокое разрешение, компактный корпус с большим экраном. Даже мне было не сложно разобраться в этом устройстве. Настроила, подключила, проверила работу от аккумулятора, держит хорошо.

Эдик Галкин01 мая 2016

Плюсы: -Большой яркий дисплей
-Работа видео от аккумулятора
-Полный комплект
-Высокое разрешение записи

Минусы: Не замечал.

Комментарий: Установил с первого дня покупки. Экран хороший, кнопки удобные. В меню быстро сориентировался, так что даже инструкция не потребовалась.
Снимает лучше, чем мой предыдущий видеорегистратор, хотя цена примерно одинаковая.

Кирилл Громов01 мая 2016

Комментарий: Остался под хорошим впечатлением от первого дня использования. Ездил с ним практически целый день, держится крепление хорошо, корпус не греется, хоть и снимал без перерыва. Циклическая запись это полезная функция, так что карту памяти я даже не трогал, ничего не стирал.Проверил Sos кнопку, сработало. Цена совсем небольшая, по меркам подобных устройств в магазинах.

Виталий Шепкин28 апреля 2016

Плюсы: Artway = Prestige. Взял не задумываясь. Эта модель, которую я купил не исключение. Старый от хорошего съёмки, заканчивая симпатичным дизайном. Всё что указано на оф. сайте производителя, верно.
Корпус из хорошего, не дешёвого пластика, устройство лёгкое, в комплекте идёт удобный кронштейн. Особенно понравилось, не засвечиваются номера машин при съемке в темное время из-за функции супер ночное видео.
——
Берите, будете только в выйгрыше.! Я только плюсую!.

Артём Семёнов24 апреля 2016

Комментарий: Выбирал собственно технические характеристики и бюджет на покупку видеорегистратора. Остался даже в плюсе, купив artway 390 / потому что это даже не средний по данным гаджет, а очень хороший. Есть всё что требуется, и датчик движения, и большой экран, и запись видео в высоком разрешении. Если бы была возможность вернуться ко дню покупки, то я бы опять же взял его, тем более у меня раньше был видеорегистратор «престиж», а это то же самое.

Сергей Данчев22 апреля 2016

Плюсы: + Super Night Video (это функция WDR — когда ночью номера не засвечиваются)
+ Full HD!
+ Пишет звук (с отключением)
+ Богатая комплектация
+ Понятная инструкция

Минусы: —

Комментарий: Во-первых комплектация, есть usb и hdmi, кабели, кронштейн, зарядное устройство в автомобиль. В общем то и всё, ну и инструкция конечно. Карту памяти докупил отдельно на 32 гб.
Циклическая запись, удобно, не нужно чистить постоянно память, перезаписывает.
Качество съёмки на 5+ !!

Ярик Богданов21 апреля 2016

Минусы: Отсутствуют.

Комментарий: Купил неделю назад. Понравился внешний вид устройства, и заявленные технические характеристики. Продукт новый, но решил попробовать, цена доступная. В первый же день протестировал от и до, и остался под хорошим впечатлением. Огромный экран, лёгкое управление, отличная съёмка. Кронштейн надёжный, видеорегистратор не трясётся.

Рома Солдатенко20 апреля 2016

Плюсы: 30 кадров в секунду частота записи.Видео идёт равномерно, не глючит и вообще качество очень хорошее. Я даже удивился получить такой результат за сравнительно небольшую сумму ..
Второе по значимости, что очень важно это угол обзора, он здесь 170 градусов. Дорогу видно полностью, здорово — 3 полосы и обочина.
+ ночной режим, очень выручает, особенно на трассе, где без него мало что вообще видно будет. Самое главное — номера не засвечиваются, что важно для суда и ДПС.
Работает как от сети автомобиля, так и от собственного аккумулятора, который кстати очень даже неплохой.. (обычно просто ставят «мёртвые». А здесь порадовал).

Минусы: Не знаю

Комментарий: Это тот же престиж, поэтому заказал не сомневаясь.

Анонимно01 июня 2016

Плюсы: Хорошее качество съемки, доступные кнопки управления, отличный угол обзора.

Минусы: Не могу настроить уровень экспозиции, где очень светло, а где темно. Подсветку вообще не понял, она видимо для галочки или я не понял как ей пользоваться.

Комментарий: Заявленным характеристикам соответствует, но вот экспозиция

Видеорегистратор Artway AV-390 Super Night Vision

Самые выгодные предложения по Видеорегистратор Artway AV-390 Super Night Vision


Василий Тюдешев, 29.08.2020

Достоинства: Хороший регистратор, качество съемки 5+
Покупайте

Комментарий: Хорошее

Екатерина Л. , 27.08.2020

Достоинства: Сразу в глаза бросилось full hD!)) Это здорово, учитывая, что за такую ​​цену не во всех видеоергистраторах такое хорошее качество видео.Экран большой, комфортно смотреть записи. Снимает циклически, т.е. по кругу, не нужно стирать ничего + есть кнопка, которая замораживает видео. если что есть важное, и он его уже не будет перезаписывать. С виду красивое, крепится быстро

АЛЕКСАНДР М., 23.08.2020

Достоинства: Отличный дизайн…. большой угол обзора.

Недостатки: Нет

Комментарий: Купил на подарок.Берите не пожалеете.

Миха В. , 22.08.2020

Достоинства: Регистратор легкий. Качество картинки прекрасное. Ночью включается подсветка, изображение не идеальное, но всё видно.Запись циклическая, новые записи затирают старые. Сам определяет когда появляется питание — начинает запись, вынул ключ из замка — несколько секунд пишет, потом выключается. Настройки не сложные, разберется и ребенок. Есть гнёзда аудио / видео. Можно легко подключить к телевизору. Но аудио / видео кабеля в комплекте нет. Есть кабель подключения к компьютеру (USB) и кабель питания (в прикуриватель). Купил по акции, цена вместе с картой памяти.

Недостатки: нет

сергей с., 12.08.2020

Достоинства: Качество съёмки.

Недостатки: Отсутствие полной инструкции, всё приходится делать методом «тыка».

Павел Орловский, 11.08.2020

Достоинства: — снимает хорошо как днём, так и в тёмное время суток (часто возвращаюсь затемно домой с работы, поэтому хорошее качество съёмки без доп.освещения, очень кстати).
— 6 стеклянных линз.
— широкий угол обзора, 170 гр. Это значит он снимает не только то, что происходит перед капотом, но и по бокам, широко.
— есть светодиодная подсветка.

Недостатки: Не знаю

Комментарий: Работает, голову не делает. Пишет циклично, поэтому постоянно доставать стирать карту памяти не нужно. Все довольны, бренд за бренд я уверен, несколько друзей пользуются устройствами этой фирмы.

Андрей Т. , 10.08.2020

Достоинства: Качество видео достойное.

Недостатки: Угол обзора не 170 градусов, а 120. Даже в мануале об это написано.
Начал глючить почти сразу: перестает записывать видео в середине движения, потом самопроизвольно начинает (пробовал разные-не помогает), принудительно запись с кнопки не включается.Иногда вообще перестает на кнопки реагировать.Поэтому когда его снял в конце дня, то увидел не всю свою дорогу, а всего 2/3 из общего движения. Расстроился, поскольку если будет дтп то он может и не снять-а это главное, для чего я его брал. И еще что-то с матрицей: въезжаешь с солнечной дороге в тоннель, а в камере темнота кромешная, только фонари видны.Потом через минуту приходит в норму. Когда выезжаешь из тоннеля, его ослепляет, все белое, минута и все норм. Очень медленно реагирует.

Евгений К. , 08.08.2020

Достоинства: Длинный шнур, неплохое качество видео, много доп. функций

Недостатки: Нажатие на кнопки бывает срабатывает не с первого раза …

патрина счастливая, 06.08.2020

Достоинства: очень удобный, компактный.

Комментарий: хотелось бы чтоб при ночной сьемке фанарь не так ярко горел, замаскировать бы))))

Владимир, 05.08.2020

Достоинства: Бюджетный.

Недостатки: Все работает. Иногда мигает экран.

Комментарий: Пользуемся.Гарантия год.

Станислав П., 03.08.2020

Достоинства: Соотношение цена — качество

Недостатки: АКБ не держит заряд вообще; кнопки периодически не реагируют на разъемие, зависает, глючит если слабый заряд (питание от сети)

Комментарий: Обычная модель, покупал на подарок, думаю сдать, так как постоянно виснет и просит форматировать карту.

Владимир К., 02.08.2020

Достоинства: Хорошое качество съемки, устроила цена

Недостатки: пока не обнаружил

Людмила, 28. 07.2020

Достоинства: Отличное качество съемки, в том числе и ночью. Хороший угол обзора. Номера машин читаемы.

Недостатки: нет

Комментарий: пока еще не пожалела о своем выборе

Маша С., 25.07.2020

Комментарий: Широкий угол обзора в 170 градусов, датчик удара, датчик в кадре, высокое разрешение, компактный корпус с большим экраном.Даже мне было не сложно разобраться в этом устройстве. Настроила, подключила, проверила работу от аккумулятора, держит хорошо.

Вячеслав Павлович, 21.07.2020

Недостатки: Обломилось крепление пластика на самом видеорегистраторе

Анна Ч. , 16.07.2020

Достоинства: Широкий угол обзора. Хорошее качество съемки ночью. Карту памяти на 16 GB воспринимает без проблем. Работает без зависаний.

Недостатки: Пока не выявили

Комментарий: Хорошая модель. Номера машин у встречного потока различимы и хорошо читаемы. Соотношение: цена-качество.

Юлия И., 16.07.2020

Достоинства: Удобный в использовании

Недостатки: корпус очень хрупкий

руслан п., 15.07.2020

Достоинства: Красивый дизайн, цена, качество записи

Недостатки: Трудно вставить карту памяти

Комментарий: Отличный видеорегистратор, все понятно, четко снимает. Рекомендую модель

дмитрий к., 11.07.2020

Достоинства: угол обзора.чёткое изображение.звукозапись.датчик движения.

Недостатки: невижу

Комментарий: отлиный регисратор.

Коля Л., 24.06.2020

Достоинства: Куплен 2 месяца назад. Хороший регистратор, который отлично работает и снимает картинку в Full HD. Замечательно справляется со съемкой в ​​ночное время суток. Понравились удобные настройки и хорошее качественное крепление — ни разу не упал, снимаю часто и ничего не сломал.

Комментарий: Интересный дизайн, отличается от стандартных региков.

Маргарита П., 23.06.2020

Достоинства: Отличное качество съемки, очень порадовал угол обзора камеры. Прост в использовании, отлично держится крепление. Покупкой очень довольна)))

Недостатки: Пластик мягкий. Других недостатков не нашла.

Антон К., 22.06.2020

Достоинства: Дизайн

Недостатки: Качество сборки, дешевый пластик, не адекватно работает кнопка меню отключает звук записи!

Комментарий: За такую ​​цену можно сделать все немного качественней!

маша п. , 18.06.2020

Достоинства: Стильный дизайн, простое и понятное меню, большой экран, чёткий звук и разборчивая речь на записи.

Недостатки: Отсутствие карты памяти в комплекте

Комментарий: Хорошее соотношение цена / качество

лео м., 15.06.2020

Достоинства: Датчик удара. Датчик движения. Отличная ночная съёмка.

Недостатки: Инструкция не информативна, не понятен выход в меню, ведет рандомно!

Комментарий: Впечатления от девайся не самые радужные !!!

arkadiy_parovozov56, 11.06.2020

Достоинства: цена, в данном ценовом диапазоне конкурентов нет, в комплекте флешка на 16 гб. , Очень длинный провод питания регистратора.хороший дисплей, куча функций

Недостатки: присоска

Комментарий: пользуюсь уже 3 недели, все устраивает, работает отлично,
за отзыв производитель обещает 100 р на телефон))) приятный бонус!
брал в Оренбурге цена 3500 р.

Андрей Андреевич, 08.06.2020

Достоинства: мне понравились отзывы других владельцев в малом количестве брака модели данной

Недостатки: но мои надежды не оправдались. На разъемие кнопки совершенно не реагировал, дата и время не установились.К компьютеру не подключался

Комментарий: Купив, сразу прикрепил. Работает 2 минуты и отключается. Вылечить не получилось, вернулись в магазине, сразу обменяли на такой же. Доехали до дому, вроде работал. Из всей дороги сохранилось только небольшой кусочек, остальное было невозможно воспроизвести. На нажимие кнопок не реагировали ни первый, ни второй, только вкл и выкл. Сдал обратно, взял Artway AV-391. Он имеет аккумулятор, ну и пока работает.

Эдуард Гавриков, 04.06.2020

Достоинства: Широкий угол обзора, захватывает почти от стойки до стойки, классическое ваакумное крепление к стеклу, Компактный, закрепил за зеркало заднего вида и его не видно. Выключение экрана через несколько минут, не слепит. Возможность, делать фото. Датчик вибрации работает очень хорошо, уже успел испробовать.

Недостатки: Кавчество фото не самое, Номера на большой скорости не разглядишь, ночная сьемка оставляет желать лучшее, но при желании можно разглядеть.

Комментарий: Смысла в фонариках со сторны камеры я так и не понял. Неплохой товар за свои деньги. Звук на видео очень отчетливо слышно.

Виталий Е., 23.05.2020

Комментарий: Отличный товар за свою цену.Особенно порадовало простое и надежное крепление регистратора.

Сим С., 20.05.2020

Комментарий: Видеорегистратор снимает в 1080, картинка хорошая, в том числе и ночью. Номера впереди идущих авто читаемы. Запись циклическая, можно выбрать временной отрезок, по сколько будут длиться ролики.Я взял для него карту на 32 гб, её предостаточно. Угол обзора 170 градусов. Слева, спереди, справа, всё захватывает перед собой, это мне сильно нравится. При этом искажение минимальное, я лично и не замечаю его. Перед покупкой ролики в интернете посмотрел, их много .. Затем купил. Доволен на все 100%

Алиса А., 18.05.2020

Достоинства: Красивый дизайн, хорошее качество изображения.

Комментарий: Данный регистратор удобен в использовании цена не завышенаю

Видеорегистратор Artway AV-390 — обзор

Для автомобилиста вечным камнем преткновения становятся метания: что выбрать? Дорогую игрушку в качестве видеорегистратора, или недорогое, но ограниченное функциях устройство для записи видео во время езды?
Настало время, когда не приходится выбирать между ценой, качеством и функциональностью!
Ниже для вас представлен обзор видеорегистратора ARTWY AV-390.

. функцию WDR и широкий угол обзора 170 градусов.

Технические данные

Процессор NTK96650
Видео матрица: Датчик 3M CMOS? 1/4 дюйма
Режим записи без остановки при заполнении карты (циклическая запись): Есть
G-Sensor (датчик удара) Есть
ИК-подсветка LED подсветка
Кнопка SOS (экстренное сохранение фрагмента) Нет
Материал корпуса Пластик
Форматы видео записи: 1920×1080, 30 к / сек,
Форматы фото 12М (4032х3024 пикселей) 10М (3648Х2736 пикселей) 8М (3264Х2448 пикселей) 5М (2592X1944 пикселей) 3М (2048X1536) пикселей) 2М (1920Х1080 пикселей) 1.3М (1280Х960 пикселей)
Угол камеры 170
Монитор 2,7 дюйма, TFT Colorful LCD
Формат записи видео MOV H.264
Формат сохранения фото JPG
Запись звука Вкл. Или Выкл.
Датчик движения Есть
Поддерживаемые карты памяти Micro SD Card (макс. 32 ГБ , класс 10)
Сохранение видеофрагментов 1мин / 3 мин / 5 мин / off
Запись даты и видео на изображении Есть
Интерфейс USB2.0 / HDMI
Напряжение питания 5V 500MA
Размер Размер: 113 * 32. 2 * 46.3мм
Вес 69 грамм .
Батарея Литий-ионная аккумуляторная батарея 450 мАч
Аксессуары в комплекте: USB-кабель, автомобильное крепление (кронштейн), автомобильное зарядное устройство, инструкция

1. Внешний вид.
На лицевой стороне упаковки продукта и по бокам расписаны все основные отличительные особенности регистратора, и характеристики. В нижней части упаковки указана комплектация AV-390, телефон службы поддержки, серийный номер прибора и сайт производителя.

Внешне AV-390 выглядит просто и имеет довольно распространенную пресс-форму корпуса.

На лицевой стороне в установленной на корпусе металлической пластине расположен стеклянный объектив, состоящий из шести линз, динамик и светодиодная подсветка.

По торцам размещены: разъем mini-HDMI и кнопка резет с одной стороны, и разъем под карту памяти microSD с другой стороны. Хотелось бы отметить, что тестирование прибора происходило с картой памяти на 32 Гб 10 класса.

В верхней части регистратора расположен разъем под крепление на лобовое стекло, разъем для подключения провода питания, разъем под AV-выход, копка вкл. / выкл. регистратора и кнопка выхода в меню настроек.
С противоположной стороны от объектива мы наблюдаем довольно большой экран, аж целых 2,7 ”у которого по бокам расположены по две кнопки управления. С одной стороны две кнопки стрелочка и стрелочка вниз, соответствуют за навигацию по меню. в разные режимы


2.Комплектация: USB-кабель, автомобильное крепление (кронштейн), автомобильное зарядное устройство, инструкция, гарантийный талон.


3. Меню настроек и инструкция.
Инструкция миниатюрная и содержащая информацию об эксплуатации гаджета.
Меню простое и максимально удобное, нет никакой сложности в настройке регистратора под свои нужды.
Дополнительно:
Немаловажная функция для тех, у кого дома нет веб-камеры. Регистратор Artway AV-390 при подключении проводом USB к компьютеру, можно использовать как выносную веб-камеру для видеообщения.
3. Видео
Начнем сразу с данных
Разрешение 1920 * 1080
Формат: AVC
Продолжительность: 3 м. 1 с.
Битрейт: 14,7 Мбит / сек
Ширина: 1920 пикселей
: 1080 пикселей
Соотношение сторон: 16: 9
Режим частоты кадров: Постоянный
Частота кадров: 30,000 кадров / сек
Цветовое пространство: YUV
Субдискретизация насыщенности: 4 : 2: 0
Битовая глубина: 8 бит
Тип развёртки: Прогрессивная
Бит / (Пиксели * Кадры): 0.237
Размер потока: 318 Мбайт (93%)
Регистратор делает оптимальные записи в дневное, пасмурное, сумеречное время, а также в ночное время на хорошо освещенных участках дороги.Номера и знаки можно прочитать на приличном расстоянии, картинка четкая.
5. Вывод:
— интуитивное управление;
— простота в эксплуатации;
— соотношение «цена — качество»;
— на выходе — четкие видеоролики.

АВТОМОБИЛЬНЫЙ ВИДЕОРЕГИСТРАТОР AV-392 / РУКОВОДСТВО ПОЛЬЗОВАТЕЛЯ /

13 Формат видео файла / кодек AVI / H. 264 Разрешение записи передней камеры Разрешение записи камеры заднего вида Циклическая запись Карта памяти Запись звука Частота мерцания экрана Аккумулятор Входные

Подробнее

/ РУКОВОДСТВО ПОЛЬЗОВАТЕЛЯ /

АВТОМОБИЛЬНЫЙ ВИДЕОРЕГИСТРАТОР С РАДАР-ДЕТЕКТОРОМ MD-100 / РУКОВОДСТВО ПОЛЬЗОВАТЕЛЯ / АВТОМОБИЛЬНЫЙ В И Д Е О Р Е Г И С Т РАТО С РАДАР-ДЕТЕКТОРОМ MD-100 СОДЕРЖАНИЕ ОБЩАЯФОРМАЦИЯ ПРЕДОСТАВЛЕНИЕ 9 МОДЕРЖАНИЕ ОБЩАЯФОРМАЦИЯ 2 Подробнее

Автомобильный видеорегистратор Ginzzu FX-901HD

Автомобильный видеорегистратор Ginzzu FX-901HD РУКОВОДСТВО ПОЛЬЗОВАТЕЛЯ 1 Благодарим Вас за приобретение видеорегистратора компании Ginzzu.Настоящее руководство поможет Вам в использовании видеорегистраторов

Подробнее

АВТОМОБИЛЬНЫЙ РАДАР-ДЕТЕКТОР PRESTIGE RD-101

АВТОМОБИЛЬНЫЙ РАДАР-ДЕТЕКТОР PRESTIGE RD-101 СОДЕРЖАНИЕ ОБЩАЯ ИНФОРМАЦИЯ МЕРЫ ПРЕДОСТОРОЖНОСТИ И ОБЩАЯ ИНФОРМАЦИЯ МЕРЫ ПРЕДОСТОРОЖНОСТИ ПРИ РАБОТЕ С РАДАР ДЕТЕКТОРОМ МЕРЫ ПРЕДОСТОРОЖНОСТИ ПРИЛОЖЕНИЯ 9 РАБОТЕ С 9 РАБОТЕ С 9 Подробнее

/ РУКОВОДСТВО ПОЛЬЗОВАТЕЛЯ /

АВТОМОБИЛЬНЫЙ ВИДЕОРЕГИСТРАТОР 700 / РУКОВОДСТВО ПОЛЬЗОВАТЕЛЯ / АВТОМОБИЛЬНЫЙ ВИДЕОРЕГИСТРАТОР 700 СОДЕРЖАНИЕ ОБЩАЯ ИНФОРМАЦИЯ 2 МЕРЫ ПРЕДОСТОРОЖНОСТИ И ОБЩАЯ ИНФОРМАЦИЯ 2 МЕРЫ ПРЕДОСТОРОЖНОСТИ И ОБЩАЯ ИНФОРМАЦИЯ 2 МЕРЫ ПРЕДОСТОРОЖНОСТИ 9 ПРИТЕЛЕФОРМАЦИЯ 2 МЕРЫ ПРЕДОСТОРОЖНОСТИ 9 ПРИТЕРАФОРМАЦИЯ Подробнее

Автомобильный видеорегистратор Ginzzu FX-804HD

Автомобильный видеорегистратор Ginzzu FX-804HD РУКОВОДСТВО ПОЛЬЗОВАТЕЛЯ Благодарим Вас за приобретение видеорегистратора компании Ginzzu. Настоящее руководство поможет Вам в использовании видеорегистраторов

Подробнее

Меры предосторожности и общая информация

Содержание Общая информация … 3 Меры предосторожности и общая информация … 3 Схема устройства видеорегистратора и органы управления … 5 Назначение органов управления видеорегистратором … 6 Эксплуатация …

Подробнее

Видение 5000HD.Руководство пользователя

1 Vision 5000HD Руководство пользователя Введение 2 Благодарим за покупку видеорегистратора Shturmann Vision 5000 HD. Надеемся, что наш видеорегистратор станет отличным помощником в пути. Перед использованием

Подробнее

Уважаемые покупатели! …

Содержание ВАЖНАЯ ИНФОРМАЦИЯ 2 Начало работы с настройками 3 Внешний вид и описание основных функций 4 Функциональный профиль 6 Технические характеристики 12 Комплектация 13 1 Уважаемые покупатели !. ..

Подробнее

Видение 600HD. Руководство пользователя

1 Vision 600HD Руководство пользователя Введение 2 Благодарим за покупку видеорегистратора Shturmann Vision 600 HD. Надеемся, что наш видеорегистратор станет отличным помощником в пути. Перед использованием

Подробнее

Автомобильный видеорегистратор Ginzzu FX-801HD

Автомобильный видеорегистратор Ginzzu FX-801HD РУКОВОДСТВО ПОЛЬЗОВАТЕЛЯ 1 Благодарим Вас за приобретение видеорегистратора компании Ginzzu.Настоящее руководство поможет Вам в использовании видеорегистраторов

Подробнее

АВТОМОБИЛЬНЫЙ ВИДЕОРЕГИСТРАТОР X1S

Изготавливая нашу продукцию, мы всегда думаем о Вас! www.subini.ru АВТОМОБИЛЬНЫЙ ВИДЕОРЕГИСТРАТОР X1S Благодарим Вас за покупку марки UBINI Перед применением, пожалуйста, внимательно ознакомьтесь

Подробнее

CROD A85-FHD Руководство пользователя

Видеорегистратор CROD A85-FHD Руководство пользователя 1 Видеорегистратор 2 1. Индикатор работы 2. 3. Меню 4. Режим 5. Кнопка Вверх / Блокировка видео 6. OK 7. Кнопка Вниз / Вкл-выкл микрофона 8. Слот для

Подробнее

Руководство по эксплуатации GQ 615 DUO

идеи будущего Руководство по эксплуатации GQ 615 DUO Автомобильный видеорегистратор * В соответствии с проводимой политикой постоянного контроля и совершенствования характеристик и дизайна,

Подробнее

ИHCTPУКЦИЯ ПO ЭKCПЛУАТАЦИИ

Модель IQ-3 Зеркало с функцией видеорегистратора с двумя камерами ИHCTPУКЦИЯ ПОО ЭKCПЛУАТАЦИИ 2016 RECXON Corporation Благодарим Вас за приобретение видеорегистратора производства нашей компании.Для обеспечения

Подробнее

Руководство пользователя Версия 1.0

Автомобильный видеорегистратор RoadRunner 525 Руководство пользователя Версия 1. 0 www.prestigio.com Информация о известной пользователю В данной пользователь представлена ​​детальная информация

Подробнее

Автомобильный видеорегистратор Ginzzu FX-900HD

Автомобильный видеорегистратор Ginzzu FX-900HD РУКОВОДСТВО ПОЛЬЗОВАТЕЛЯ 1 Благодарим Вас за приобретение видеорегистратора компании Ginzzu.Настоящее руководство поможет Вам в использовании видеорегистраторов

Подробнее

Автомобильный видеорегистратор

Автомобильный видеорегистратор RoadRunner 300I Руководство пользователя Версия 1.0 www.prestigio.com Информация к руководству пользователя Руководство пользователя Основные функции и характеристики

Подробнее

Уважаемый покупатель!

Уважаемый покупатель! Благодарим за то, что Вы приобрели видеорегистратор Neoline Wide S53.Внимательно и до конца прочитайте данное руководство, чтобы правильно использовать устройство и продлить срок

Подробнее

CROD A85-CPL Руководство пользователя

Видеорегистратор CROD A85-CPL Руководство пользователя 1 Видеорегистратор 2 1. Индикатор работы 2. 3. Меню 4. Режим 5. Кнопка Вверх / Блокировка видео 6. OK 7. Кнопка Вниз / Вкл-выкл микрофона 8. Слот для

Подробнее

ИНСТРУКЦИЯ ПО ЭКСПЛУАТАЦИИ

ИНСТРУКЦИЯ ПО ЭКСПЛУАТАЦИИ D5 АВТОМОБИЛЬНЫЙ ВИДЕОРЕГИСТРАТОР CARCAM.RU ВВЕДЕНИЕ CARCAM D5 автомобильный Full HD видеорегистратор с широкоугольным объективом и дополнительной HD камерой заднего вида. Благодаря

Подробнее

Видеорегистратор Cubex V45

Видеорегистратор Cubex V45 Уважаемый покупатель! Благодарим за то, что Вы приобрели видеорегистратор Neoline Cubex V45. Внимательно и до конца прочитайте данное руководство, чтобы правильно использовать

Подробнее

Уважаемый покупатель!

Уважаемый покупатель! Благодарим за то, что Вы приобрели видеорегистратор Neoline Wide S25. Внимательно и до конца прочитайте данное руководство, чтобы правильно использовать устройство и продлить срок

Подробнее

Видеорегистратор Artway AV-390 — обзор — 25 Января 2017

Для автомобилиста вечным камнем преткновения становятся метания: что выбрать? Дорогую игрушку в качестве видеорегистратора, или недорогое, но ограниченное функциях устройство для записи видео во время езды?
Настало время, когда не приходится выбирать между ценой, качеством и функциональностью!
Ниже для вас представлен обзор видеорегистратора ARTWY AV-390.

Сборка и функционал модели классический стиль, но в ней сочетаются необходимые характеристики и функции, которые должны присутствовать в бюджетном видеорегистраторе, а именно: разрешение видео 1920 * 1080 30к / сек, большой 2,7-дюймовый экран, LED — подсветку, функцию WDR и широкий угол обзора 170 градусов.

Технические данные

Процессор NTK96650
Видео матрица: Датчик 3M CMOS? 1/4 дюйма
Режим записи без остановки при достижении карты памяти (циклическая запись): Есть
G-Sensor (датчик удара) Есть
IR LED подсветка
SOS (экстренное сохранение фрагмента) Нет
Материал корпуса Пластик
Форматы видео записи: 1920×1080, 30 к / сек,
Форматы фото 12М (4032х3024 пикселей) 10М (3648Х2736 пикселей) 8М (3264Х2448 пикселей) 5М (2592X1944 пикселей) 3М (2048X1536 пикселей) 2М (1920Х1080) пикселей) 1. 3М (1280Х960 пикселей)
Угол камеры 170
Монитор 2,7 дюйма, TFT Colorful LCD
Формат записи видео MOV H.264
Формат сохранения фото JPG
Запись звука Вкл. Или Выкл.
Датчик движения Есть
Поддерживаемые карты памяти Micro SD Card (макс. 32 ГБ , класс 10)
Сохранение видеофрагментов 1мин / 3 мин / 5 мин / off
Запись даты и видео на изображении Есть
Интерфейс USB2.0 / HDMI
Напряжение питания 5V 500MA
Размер Размер: 113 * 32.2 * 46.3мм
Вес 69 грамм .
Батарея Литий-ионная аккумуляторная батарея 450 мАч
Аксессуары в комплекте: USB-кабель, автомобильное крепление (кронштейн), автомобильное зарядное устройство, инструкция

1. Внешний вид.
На лицевой стороне упаковки продукта и по бокам расписаны все основные отличительные особенности данного регистратора, и характеристики. В нижней части упаковки указана комплектация AV-390, телефон службы поддержки, серийный номер прибора и сайт производителя.

Внешне AV-390 выглядит просто и имеет довольно распространенную пресс-форму корпуса.

На лицевой стороне в установленной на корпусе металлической пластине расположен стеклянный объектив, состоящий из шести линз, динамик и светодиодная подсветка.


По торцам размещены: разъем mini-HDMI и кнопка резет с одной стороны, и разъем под карту памяти microSD с другой стороны. Хотелось бы отметить, что тестирование прибора происходило с картой памяти на 32 Гб 10 класса.

В верхней части регистратора расположен разъем под крепление на лобовое стекло, разъем для подключения провода питания, разъем под AV-выход, копка вкл./ выкл. регистратора и кнопка выхода в меню настроек.
С противоположной стороны от объектива мы наблюдаем довольно большой экран, аж целых 2,7 ”у которого по бокам расположены по две кнопки управления. С одной стороны две кнопки стрелочка вниз, вперед за навигацию по меню (так же эти кнопки соответствуют за увеличение, уменьшение зума картинки во время съемки), с другой стороны кнопки ОК — подтверждение выбора определенного действия и кнопка MODE — отвечающие за переход в разные режимы


2. Комплектация: USB-кабель, автомобильное крепление (кронштейн), автомобильное зарядное устройство, инструкция, гарантийный талон.


3. Меню настроек и инструкция.
Инструкция миниатюрная и содержит всю необходимую информацию об эксплуатации гаджета.
Меню простое и максимально удобное, нет никакой сложности в настройке регистратора под свои нужды.
Дополнительно:
Немаловажная функция для тех, у кого дома нет веб-камеры.Регистратор Artway AV-390 при подключении проводом USB к компьютеру, можно использовать как выносную веб-камеру для видеообщения.
4. Видео
Начнем сразу с данных
Разрешение 1920 * 1080
Формат: AVC
Продолжительность: 3 м. 1 с.
Битрейт: 14,7 Мбит / сек
Ширина: 1920 пикселей
: 1080 пикселей
Соотношение сторон: 16: 9
Режим частоты кадров: Постоянный
Частота кадров: 30,000 кадров / сек
Цветовое пространство: YUV
Субдискретизация насыщенности: 4 : 2: 0
Битовая глубина: 8 бит
Тип развёртки: Прогрессивная
Бит / (Пиксели * Кадры): 0.

Добавить комментарий

Ваш адрес email не будет опубликован. Обязательные поля помечены *